НАЖМИТЕ НА ЭТОТ ТЕКСТ - ДЛЯ ВАС ВАЖАЯ ИНФОРМАЦИЯ

Чёрное море / Black Sea (2014) WEB-DL 1080p | P | Open Matte

Скачать Black_Sea_2014_Open_Matte.mkv.torrent


Информация о фильме
Название: Чёрное море
Оригинальное название: Black Sea
Год выхода: 2014
Жанр: триллер, приключения
Режиссер: Кевин МакДональд / Kevin Macdonald
В ролях: Джуд Лоу, Скут МакНэри, Бен Мендельсон, Карл Дейвис, Льюэлла Гидеон, Джоди Уиттакер, Гас Барри, Константин Хабенский, Дэниэл Райан, Тобайас Мензис
О фильме:
К уволенному капитану подводной лодки обращается таинственный наниматель с предложением возглавить экспедицию по поиску затонувшей у берегов Чёрного моря субмарины, предположительно загруженной золотом. Желая подзаработать на этом деле и отомстить бывшему работодателю, капитан собирает команду из русских и английских моряков и отправляется в плавание, но вскоре понимает, в какое рискованное предприятие ввязался.

Страна: США, Великобритания, Россия
Студия: Focus Features, Cowboy Films
Продолжительность: 01:54:26
Перевод: Профессиональный (многоголосый, закадровый) Лицензия
Файл
Качество: WEB-DL 1080p | Open Matte
Формат: MKV
Видео: 1920x1080, 23.976 fps, MPEG-4 AVC, 6658 kbps avg
Аудио 1: Russian: 48 kHz, AC3, 6 ch, ~448 kbps avg
Аудио 2: English: 48 kHz, AC3, 6 ch, ~448 kbps avg
Субтитры: Русские (full), английские (full)
Исходник видео: Amazon
MediaInfo
General
Unique ID : 221894638997082742511500820849363734469 (0xA6EF5A5C86DFD86E833BDEDFB4CB4FC5)
Complete name : F:Black Sea (2014) Open Matte.mkv
Format : Matroska
Format version : Version 4
File size : 6.04 GiB
Duration : 1 h 54 min
Overall bit rate : 7 556 kb/s
Encoded date : UTC 2019-09-06 15:56:17
Writing application : mkvmerge v8.3.0 ('Over the Horizon') 32bit
Writing library : libebml v1.3.1 + libmatroska v1.4.2
Video
ID : 1
Format : AVC
Format/Info : Advanced Video Codec
Format profile : High@L4
Format settings : CABAC / 4 Ref Frames
Format settings, CABAC : Yes
Format settings, Reference : 4 frames
Codec ID : V_MPEG4/ISO/AVC
Duration : 1 h 54 min
Bit rate : 6 658 kb/s
Width : 1 920 pixels
Height : 1 080 pixels
Display aspect ratio : 16:9
Frame rate mode : Constant
Frame rate : 23.976 (24000/1001) FPS
Color space : YUV
Chroma subsampling : 4:2:0
Bit depth : 8 bits
Scan type : Progressive
Bits/(Pixel*Frame) : 0.134
Stream size : 5.32 GiB (88%)
Language : English
Default : Yes
Forced : No
Color range : Limited
Color primaries : BT.709
Transfer characteristics : BT.709
Matrix coefficients : BT.709
Audio #1
ID : 2
Format : AC-3
Format/Info : Audio Coding 3
Commercial name : Dolby Digital
Codec ID : A_AC3
Duration : 1 h 54 min
Bit rate mode : Constant
Bit rate : 448 kb/s
Channel(s) : 6 channels
Channel layout : L R C LFE Ls Rs
Sampling rate : 48.0 kHz
Frame rate : 31.250 FPS (1536 SPF)
Bit depth : 16 bits
Compression mode : Lossy
Stream size : 367 MiB (6%)
Language : Russian
Service kind : Complete Main
Default : Yes
Forced : No
Audio #2
ID : 3
Format : AC-3
Format/Info : Audio Coding 3
Commercial name : Dolby Digital
Codec ID : A_AC3
Duration : 1 h 54 min
Bit rate mode : Constant
Bit rate : 448 kb/s
Channel(s) : 6 channels
Channel layout : L R C LFE Ls Rs
Sampling rate : 48.0 kHz
Frame rate : 31.250 FPS (1536 SPF)
Bit depth : 16 bits
Compression mode : Lossy
Stream size : 367 MiB (6%)
Language : English
Service kind : Complete Main
Default : No
Forced : No
Text #1
ID : 4
Format : UTF-8
Codec ID : S_TEXT/UTF8
Codec ID/Info : UTF-8 Plain Text
Duration : 1 h 47 min
Bit rate : 65 b/s
Count of elements : 788
Stream size : 51.7 KiB (0%)
Language : Russian
Default : No
Forced : No
Text #2
ID : 5
Format : UTF-8
Codec ID : S_TEXT/UTF8
Codec ID/Info : UTF-8 Plain Text
Duration : 1 h 47 min
Bit rate : 50 b/s
Count of elements : 1384
Stream size : 39.8 KiB (0%)
Language : English
Default : No
Forced : No
Сравнения

ОценкаНикто ещё не поставил оценку
КатегорияЗарубежные фильмы
Раздают20
Качают4
Сидер замечен08-09-2019 2:19:12 (17 минут назад)
Добавлен07-09-2019 21:07:27 (5 часов назад)
Размер6.04 GB (6486182805 Bytes)
Файлы (1)

up
На сервере не хранятся никакие нелегальные файлы и нет торрент файлов. Здесь невозможно что-либо скачать. Имеются только копии страниц с текстом для ознакомления. Администрация не несёт ответственности за их содержание. Информация правообладателям