НАЖМИТЕ НА ЭТОТ ТЕКСТ - ДЛЯ ВАС ВАЖАЯ ИНФОРМАЦИЯ

Люди Икс: Тёмный Феникс / Dark Phoenix (2019) UHD BDRemux 2160p от селезень | 4K | HDR | Лицензия

Скачать Dark.Phoenix.2019.BDREMUX.2160p.HDR.seleZen.mkv.torrent


Информация о фильме
Название: Люди Икс: Тёмный Феникс
Оригинальное название: Dark Phoenix
Год выхода: 2019
Жанр: Фантастика, боевик, приключения
Режиссер: Саймон Кинберг
В ролях: Джеймс МакЭвой, Майкл Фассбендер, Дженнифер Лоуренс, Николас Холт, Софи Тёрнер, Тай Шеридан, Александра Шипп, Эван Питерс, Коди Смит-МакФи, Джессика Честейн

О фильме: История Джин Грей, которая разворачивается в тот момент, когда героиня превращается в культового Тёмного Феникса. Во время опасной для жизни спасательной миссии в космосе девушка оказывается поражена таинственной космической силой, которая превращает её в одного из самых могущественных мутантов. В борьбе с этой всё более изменчивой мощью и со своими собственными демонами Джин выходит из-под контроля: раскалывает семью Людей Икс и угрожает уничтожить всю нашу планету.
Страна: США
Студия: Twentieth Century Fox, Bad Hat Harry Productions, Donners' Company
Продолжительность: 01:53:56
Перевод: Дублированный | Лицензия
Качество: BDRemux 2160p
Видео: 3840x2160 at 23.976 fps, MPEG-H HEVC HDR Video, 49700 kbps avg
Звук:
Аудио #01: 48 kHz, DTS, 5.1, 768 Kbps | Дублированный | RUS |
Аудио #02: 48 kHz, AC3, 5.1, 448 Kbps | Дублированный | RUS |
Аудио #03: 48 kHz, TrueHD, 7.1, 4775 Kbps | Оригинал | ENG |
Аудио #04: 48 kHz, AC3, 5.1, 640 Kbps | Оригинал | ENG |
Субтитры: Русские (2 x Forced, 2 x full), английские

MI
General
Unique ID : 143881136092801801840626171755761698028 (0x6C3E7FB432C5555935D4A6B3E24F04EC)
Complete name : D:Video111Dark.Phoenix.2019.BDREMUX.2160p.HDR.seleZen.mkv
Format : Matroska
Format version : Version 4
File size : 44.9 GiB
Duration : 1 h 53 min
Overall bit rate mode : Variable
Overall bit rate : 56.4 Mb/s
Movie name : Dark Phoenix 2019 4K from селезень
Encoded date : UTC 2019-09-07 19:45:50
Writing application : mkvmerge v22.0.0 ('At The End Of The World') 64-bit
Writing library : libebml v1.3.5 + libmatroska v1.4.8
Video
ID : 1
Format : HEVC
Format/Info : High Efficiency Video Coding
Format profile : Main 10@L5.1@High
HDR format : SMPTE ST 2094 App 4, Version 1, HDR10+ Profile A compatible
Codec ID : V_MPEGH/ISO/HEVC
Duration : 1 h 53 min
Bit rate : 49.7 Mb/s
Width : 3 840 pixels
Height : 2 160 pixels
Display aspect ratio : 16:9
Frame rate mode : Constant
Frame rate : 23.976 (24000/1001) FPS
Color space : YUV
Chroma subsampling : 4:2:0 (Type 2)
Bit depth : 10 bits
Bits/(Pixel*Frame) : 0.250
Stream size : 39.6 GiB (88%)
Writing library : ATEME Titan File 3.9.0 (4.9.0.0)
Language : English
Default : Yes
Forced : No
Color range : Limited
Color primaries : BT.2020
Transfer characteristics : PQ
Matrix coefficients : BT.2020 non-constant
Mastering display color pri : Display P3
Mastering display luminance : min: 0.0050 cd/m2, max: 1000 cd/m2
Audio #1
ID : 2
Format : DTS
Format/Info : Digital Theater Systems
Codec ID : A_DTS
Duration : 1 h 53 min
Bit rate mode : Constant
Bit rate : 768 kb/s
Channel(s) : 6 channels
Channel layout : C L R Ls Rs LFE
Sampling rate : 48.0 kHz
Frame rate : 93.750 FPS (512 SPF)
Bit depth : 24 bits
Compression mode : Lossy
Stream size : 626 MiB (1%)
Title : Dub [License]
Language : Russian
Default : Yes
Forced : Yes
Audio #2
ID : 3
Format : AC-3
Format/Info : Audio Coding 3
Commercial name : Dolby Digital
Codec ID : A_AC3
Duration : 1 h 53 min
Bit rate mode : Constant
Bit rate : 448 kb/s
Channel(s) : 6 channels
Channel layout : L R C LFE Ls Rs
Sampling rate : 48.0 kHz
Frame rate : 31.250 FPS (1536 SPF)
Bit depth : 16 bits
Compression mode : Lossy
Stream size : 365 MiB (1%)
Title : Dub [License]
Language : Russian
Service kind : Complete Main
Default : No
Forced : No
Audio #3
ID : 4
Format : MLP FBA 16-ch
Format/Info : Meridian Lossless Packing FBA with 16-channel presentation
Commercial name : Dolby TrueHD with Dolby Atmos
Codec ID : A_TRUEHD
Duration : 1 h 53 min
Bit rate mode : Variable
Bit rate : 4 775 kb/s
Maximum bit rate : 7 464 kb/s
Channel(s) : 8 channels
Channel layout : L R C LFE Ls Rs Lb Rb
Sampling rate : 48.0 kHz
Frame rate : 1 200.000 FPS (40 SPF)
Compression mode : Lossless
Stream size : 3.80 GiB (8%)
Title : Original
Language : English
Default : No
Forced : No
Number of dynamic objects : 13
Bed channel count : 1 channel
Bed channel configuration : LFE
Audio #4
ID : 5
Format : AC-3
Format/Info : Audio Coding 3
Commercial name : Dolby Digital
Codec ID : A_AC3
Duration : 1 h 53 min
Bit rate mode : Constant
Bit rate : 640 kb/s
Channel(s) : 6 channels
Channel layout : L R C LFE Ls Rs
Sampling rate : 48.0 kHz
Frame rate : 31.250 FPS (1536 SPF)
Bit depth : 16 bits
Compression mode : Lossy
Stream size : 522 MiB (1%)
Language : English
Service kind : Complete Main
Default : No
Forced : No
Text #1
ID : 6
Format : UTF-8
Codec ID : S_TEXT/UTF8
Codec ID/Info : UTF-8 Plain Text
Duration : 1 h 34 min
Bit rate : 0 b/s
Count of elements : 9
Stream size : 371 Bytes (0%)
Title : Forced [License]
Language : Russian
Default : Yes
Forced : Yes
Text #2
ID : 7
Format : UTF-8
Codec ID : S_TEXT/UTF8
Codec ID/Info : UTF-8 Plain Text
Duration : 1 h 52 min
Bit rate : 55 b/s
Count of elements : 1094
Stream size : 46.0 KiB (0%)
Title : Full [License]
Language : Russian
Default : No
Forced : No
Text #3
ID : 8
Format : UTF-8
Codec ID : S_TEXT/UTF8
Codec ID/Info : UTF-8 Plain Text
Duration : 1 h 52 min
Bit rate : 1 b/s
Count of elements : 18
Stream size : 1.03 KiB (0%)
Title : Forced [Enigma]
Language : Russian
Default : No
Forced : No
Text #4
ID : 9
Format : UTF-8
Codec ID : S_TEXT/UTF8
Codec ID/Info : UTF-8 Plain Text
Duration : 1 h 52 min
Bit rate : 63 b/s
Count of elements : 1137
Stream size : 52.9 KiB (0%)
Title : Full [Enigma]
Language : Russian
Default : No
Forced : No
Text #5
ID : 10
Format : UTF-8
Codec ID : S_TEXT/UTF8
Codec ID/Info : UTF-8 Plain Text
Duration : 1 h 52 min
Bit rate : 38 b/s
Count of elements : 1135
Stream size : 31.5 KiB (0%)
Title : Full
Language : English
Default : No
Forced : No
Text #6
ID : 11
Format : UTF-8
Codec ID : S_TEXT/UTF8
Codec ID/Info : UTF-8 Plain Text
Duration : 1 h 53 min
Bit rate : 43 b/s
Count of elements : 1414
Stream size : 36.4 KiB (0%)
Title : SDH
Language : English
Default : No
Forced : No
Menu
00:00:00.000 : en:Chapter 01
00:03:28.541 : en:Chapter 02
00:07:33.995 : en:Chapter 03
00:11:41.867 : en:Chapter 04
00:15:43.776 : en:Chapter 05
00:18:37.074 : en:Chapter 06
00:25:24.147 : en:Chapter 07
00:31:40.023 : en:Chapter 08
00:34:18.973 : en:Chapter 09
00:40:07.113 : en:Chapter 10
00:44:35.756 : en:Chapter 11
00:49:07.319 : en:Chapter 12
00:55:37.834 : en:Chapter 13
00:58:57.075 : en:Chapter 14
01:02:55.521 : en:Chapter 15
01:10:39.777 : en:Chapter 16
01:13:42.084 : en:Chapter 17
01:19:32.893 : en:Chapter 18
01:22:35.367 : en:Chapter 19
01:25:48.351 : en:Chapter 20
01:30:37.849 : en:Chapter 21
01:32:47.603 : en:Chapter 22
01:37:59.290 : en:Chapter 23
01:45:00.711 : en:Chapter 24

Релиз от:
ОценкаНикто ещё не поставил оценку
КатегорияЗарубежные фильмы
Раздают13
Качают24
Сидер замечен08-09-2019 2:19:12 (16 минут назад)
Добавлен07-09-2019 22:55:47 (4 часа назад)
Размер44.89 GB (48196808789 Bytes)
Файлы (1)

up
На сервере не хранятся никакие нелегальные файлы и нет торрент файлов. Здесь невозможно что-либо скачать. Имеются только копии страниц с текстом для ознакомления. Администрация не несёт ответственности за их содержание. Информация правообладателям