НАЖМИТЕ НА ЭТОТ ТЕКСТ - ДЛЯ ВАС ВАЖАЯ ИНФОРМАЦИЯ

Официальная версия / La historia oficial / The official story (1985) BDRemux 1080р | D

Скачать Oficialnaja_versija_1985_BDRemux_1080p.mkv.torrent


Информация о фильме
Название: Официальная версия
Оригинальное название: La historia oficial / The official story
Год выхода: 1985
Жанр: драма, история, военный
Режиссер: Луис Пуэнсо
В ролях: Эктор Альтерио, Норма Алеандро, Чунчуна Вильяфанье, Уго Арана, Гильермо Батталья, Чела Руис, Патрисио Контрерас, Мария Луиса Робледо, Анибаль Мориксе, Хорхе Петраглиа, Аналия Кастро, Дэниэл Лаго, Августо Ларрета, Лаура Пальмуччи
Описание: Драма об обеспеченной аргентинке — женщине, далекой от политики, — которая узнает, что ее приемная дочь является ребенком политического узника, а муж причастен к преступлениям диктатуры… Она хочет узнать правду и вплотную сталкивается с реалиями диктаторского режима.

Страна: Аргентина
Продолжительность: 01:55:41
Перевод: профессиональный (дублированный) Ленфильм
Субтитры: русские, английские
Оригинальная аудиодорожка: испанский
Файл
Качество: BDRemux 1080р
Видео: MPEG-4 AVC Video / 34000 kbps / 1080p / 24.000 fps / 16:9 / High Profile 4.1
Аудио 1: Russian / AC-3 / 2.0 / 48 kHz / 192 kbps / 16-bit
Аудио 2: Spanish / DTS-HD Master Audio / 5.1 / 48 kHz / 4037 kbps / 24-bit (DTS Core: 5.1 / 48 kHz / 1509 kbps / 24-bit)

MediaInfo
Общее
Уникальный идентификатор : 191827117164580791279727226391545893863 (0x90508F14AD9F59260FBEA06DC5BDD3E7)
Полное имя : Официальная версия (1985) BDRemux 1080p.mkv
Формат : Matroska
Версия формата : Version 4
Размер файла : 30,0 Гбайт
Продолжительность : 1 ч. 55 м.
Режим общего битрейта : Переменный
Общий поток : 37,2 Мбит/сек
Название фильма : La historia oficial (1985)
Дата кодирования : UTC 2019-02-08 17:16:31
Программа кодирования : mkvmerge v30.1.0 ('Forever And More') 64-bit
Библиотека кодирования : libebml v1.3.6 libmatroska v1.4.9
Видео
Идентификатор : 1
Формат : AVC
Формат/Информация : Advanced Video Codec
Профиль формата : High@L4.1
Настройки формата : CABAC / 4 Ref Frames
Параметр CABAC формата : Да
Параметр RefFrames формата : 4 кадра
Идентификатор кодека : V_MPEG4/ISO/AVC
Продолжительность : 1 ч. 55 м.
Вид битрейта : Постоянный
Битрейт : 34,0 Мбит/сек
Ширина : 1920 пикселей
Высота : 1080 пикселей
Соотношение сторон : 16:9
Режим частоты кадров : Постоянный
Частота кадров : 24,000 кадра/сек
Стандарт вещания : NTSC
Цветовое пространство : YUV
Субдискретизация насыщенности : 4:2:0
Битовая глубина : 8 бит
Тип развёртки : Прогрессивная
Бит/(Пиксели*Кадры) : 0.683
Размер потока : 26,6 Гбайт (89%)
Язык : Spanish
Default : Да
Forced : Нет
Цветовой диапазон : Limited
Основные цвета : BT.709
Характеристики трансфера : BT.709
Коэффициенты матрицы : BT.709
Аудио #1
Идентификатор : 2
Формат : AC-3
Формат/Информация : Audio Coding 3
Коммерческое название : Dolby Digital
Идентификатор кодека : A_AC3
Продолжительность : 1 ч. 55 м.
Вид битрейта : Постоянный
Битрейт : 192 Кбит/сек
Каналы : 2 канала
Channel layout : L R
Частота : 48,0 КГц
Частота кадров : 31,250 кадров/сек (1536 SPF)
Битовая глубина : 16 бит
Метод сжатия : С потерями
Размер потока : 159 Мбайт (1%)
Заголовок : Dub
Язык : Russian
ServiceKind : Complete Main
Default : Да
Forced : Нет
Аудио #2
Идентификатор : 3
Формат : DTS XLL
Формат/Информация : Digital Theater Systems
Коммерческое название : DTS-HD Master Audio
Идентификатор кодека : A_DTS
Продолжительность : 1 ч. 55 м.
Вид битрейта : Переменный
Битрейт : 4037 Кбит/сек
Каналы : 6 каналов
Channel layout : C L R Ls Rs LFE
Частота : 48,0 КГц
Частота кадров : 93,750 кадра/сек (512 SPF)
Битовая глубина : 24 бит
Метод сжатия : Без потерь
Размер потока : 3,26 Гбайт (11%)
Заголовок : original
Язык : Spanish
Default : Нет
Forced : Нет
Текст #1
Идентификатор : 4
Формат : UTF-8
Идентификатор кодека : S_TEXT/UTF8
Идентификатор кодека/Информация : UTF-8 Plain Text
Продолжительность : 1 ч. 50 м.
Битрейт : 100 бит/сек
ElementCount : 1253
Размер потока : 81,4 Кбайт (0%)
Заголовок : srt
Язык : Russian
Default : Нет
Forced : Нет
Текст #2
Идентификатор : 5
Формат : UTF-8
Идентификатор кодека : S_TEXT/UTF8
Идентификатор кодека/Информация : UTF-8 Plain Text
Продолжительность : 1 ч. 52 м.
Битрейт : 50 бит/сек
ElementCount : 1275
Размер потока : 41,7 Кбайт (0%)
Заголовок : srt
Язык : English
Default : Нет
Forced : Нет
Меню
00:00:00.000 : :Chapter 01
00:10:44.708 : :Chapter 02
00:20:53.833 : :Chapter 03
00:32:15.958 : :Chapter 04
00:40:11.458 : :Chapter 05
00:50:22.541 : :Chapter 06
01:01:31.125 : :Chapter 07
01:09:12.583 : :Chapter 08
01:20:09.791 : :Chapter 09
01:28:13.125 : :Chapter 10
01:39:57.166 : :Chapter 11
01:48:14.958 : :Chapter 12
ОценкаНикто ещё не поставил оценку
КатегорияЗарубежные фильмы
Раздают0
Качают1
Сидер замечен27-05-2019 20:19:12 (3 месяца назад)
Добавлен07-09-2019 23:32:39 (36 минут назад)
Размер30.02 GB (32236230438 Bytes)
Связанные раздачи
ДобавленНазваниеРазмерПиры
31 Июл 18 Официальная версия / La historia oficial (1985) DVDRip-AVC | D 1C 1.50 GBS 2 L 0
Файлы (1)

verge 08-09-2019 0:07:30 (56 секунд назад)
1.45 бы.
 
up
На сервере не хранятся никакие нелегальные файлы и нет торрент файлов. Здесь невозможно что-либо скачать. Имеются только копии страниц с текстом для ознакомления. Администрация не несёт ответственности за их содержание. Информация правообладателям