НАЖМИТЕ НА ЭТОТ ТЕКСТ - ДЛЯ ВАС ВАЖАЯ ИНФОРМАЦИЯ

Призраки Замоскворечья [01-04 из 04] (2019) WEB-DLRip от Files-x

Скачать Prizraki_Zamoskvorechja.2019.WEB-DLRip.Files-x.torrent


Информация о фильме
Оригинальное название: Призраки Замоскворечья
Год выхода: 2019
Жанр: Детектив, экранизация
Режиссер: Александр Олейников (II), Игорь Багатурия
В ролях: Александра Богданова, Елена Проклова, Андрей Ургант, Евгений Миллер, Алексей Барабаш, Леонид Громов, Татьяна Агафонова, Людмила Чурсина, Тамара Сёмина, Владимир Фекленко, Александр Мохов, Лаура Кеосаян, Юлия Сулес, Владимир Щербаков, Екатерина Семёнова, Иван Моховиков, Олег Филипчик, Екатерина Кульчицкая, Александра Тарантович, Иван Агапов, Владимир Киммельман, Дмитрий Коптев, Екатерина Сёмина, Катерина Беккер, Марина Гайзидорская
О фильме:
Благополучная, размеренная жизнь замоскворецкого вип-ателье рушится в одночасье. Его хозяйка Надежда Раух оказывается втянутой в загадочную историю: из примерочной исчезает портфель важной клиентки, после чего пропадает она сама. Ввиду конфиденциальности инцидент расследует сотрудник службы безопасности Лев Астраханский. Обвинив Надежду во всех смертных грехах, он вскоре выясняет, что преступление имеет исторический шлейф…
Страна: Россия
Студия: Студия П
Продолжительность: 4 х 00:45:00
Перевод: Не требуется
Файл
Кодек: XviD
Качество: WEB-DLRip
Видео: XviD, ~ 1600 Кбит/с, 720x400, 25 кадр/с
Звук: AC3, 2 ch, 192 Кбит/с





MediaInfo

General
Complete name : C:01. Призраки Замоскворечья.2019.WEB-DLRip.Files-x.avi
Format : AVI
Format/Info : Audio Video Interleave
File size : 580 MiB
Duration : 44mn 59s
Overall bit rate : 1 802 Kbps
Writing application : VirtualDubMod 1.5.10.3 | www.virtualdub-fr.org || (build 2550/release)
Writing library : VirtualDubMod build 2550/release
Video
ID : 0
Format : MPEG-4 Visual
Format profile : Advanced Simple@L5
Format settings, BVOP : 1
Format settings, QPel : No
Format settings, GMC : No warppoints
Format settings, Matrix : Custom
Codec ID : XVID
Codec ID/Hint : XviD
Duration : 44mn 59s
Bit rate : 1 600 Kbps
Width : 720 pixels
Height : 400 pixels
Display aspect ratio : 16:9
Frame rate : 25.000 fps
Color space : YUV
Chroma subsampling : 4:2:0
Bit depth : 8 bits
Scan type : Progressive
Compression mode : Lossy
Bits/(Pixel*Frame) : 0.222
Stream size : 515 MiB (89%)
Writing library : XviD 73
Audio
ID : 1
Format : AC-3
Format/Info : Audio Coding 3
Mode extension : CM (complete main)
Codec ID : 2000
Duration : 44mn 59s
Bit rate mode : Constant
Bit rate : 192 Kbps
Channel(s) : 2 channels
Channel positions : Front: L R
Sampling rate : 48.0 KHz
Bit depth : 16 bits
Compression mode : Lossy
Stream size : 61.8 MiB (11%)
Alignment : Split accross interleaves
Interleave, duration : 40 ms (1.00 video frame)
Interleave, preload duration : 500 ms

Внимание! Раздача ведётся путём добавления новых серий

Раздача ведётся путём добавления новых серий, при каждом добавлении создаётся новый торрент. Чтобы начать докачку новой серии, пользователям необходимо сделать следующее:
- Остановить скачивание.
- Удалить старый торрент у себя из клиента (старые серии удалять не надо).
- Скачать новый торрент и запустить его у себя в клиенте вместо старого, при этом указать клиенту путь в старую папку куда и должно происходить скачивание новых серий.
Ваш клиент при этом должен произвести хеширование (проверку) старой папки (если не производит сам - помогите ему сделать это), и будет докачивать только те серии которых у вас ещё нет. Старые серии при этом не удаляются, а продолжают раздаваться!
Если вы уже удалили старые серии, то предотвратить повторную закачку старых серий можно, отжав галочку в соответствующих местах при запуске нового торрента. По возможности, желательно не удалять старые серии как можно дольше, чтобы релизер не столько продолжал раздавать старые серии, а смог сконцентрироваться на новых.

Релиз от:
ЗалилPantaleone
ОценкаНикто ещё не поставил оценку
КатегорияНаши сериалы
Раздают54
Качают17
Сидер замечен08-09-2019 2:19:12 (18 минут назад)
Добавлен07-09-2019 21:08:00 (5 часов назад)
Размер2.28 GB (2444066816 Bytes)
Связанные раздачи
ДобавленНазваниеРазмерПиры
07 Сен 19 Призраки Замоскворечья [01-04 из 04] (2019) WEB-DLRip-AVC от Files-x 2.27 GBS 23 L 6
07 Сен 19 Призраки Замоскворечья [01х01-04 из 04] (2019) SATRip-AVC 2.22 GBS 151 L 37
Файлы (4)

up
На сервере не хранятся никакие нелегальные файлы и нет торрент файлов. Здесь невозможно что-либо скачать. Имеются только копии страниц с текстом для ознакомления. Администрация не несёт ответственности за их содержание. Информация правообладателям