НАЖМИТЕ НА ЭТОТ ТЕКСТ - ДЛЯ ВАС ВАЖАЯ ИНФОРМАЦИЯ

В поисках Дори / Finding Dory (2016) UHD BDRemux 2160p от селезень | 4K | HDR | D, A | Лицензия

Скачать Finding.Dory.2016.BDREMUX.2160p.HDR.seleZen.mkv.torrent


Информация о фильме
Название: В поисках Дори
Оригинальное название: Finding Dory
Год выхода: 2016
Жанр: Мультфильм, комедия, приключения, семейный, полнометражный
Режиссер: Эндрю Стэнтон, Энгус МакЛэйн
В ролях: Эллен ДеДженерес, Альберт Брукс, Эд О`Нил, Кэйтлин Олсон, Хайден Роуленс, Тай Буррелл, Дайан Китон, Юджин Леви, Слоун Мюррэй, Идрис Эльба



О фильме: Дори — синяя доброжелательная рыбка-хирург, страдающая провалами в памяти. Она забыла больше, чем вы когда-либо знали. Она говорит на языке китов и танцует на вечеринках с акулами. Во время поисков Немо она нашла друзей – теперь пришло время найти семью. Чем старше становится Дори, тем больше ее мучают вопросы прошлого. Где она родилась Кто ее родители Что с ее памятью Какой был первый вопрос Для поиска ответов Дори, Немо и его отец Марлин отправляются в путешествие.

Страна: США
Студия: Pixar Animation Studios, Walt Disney Pictures
Продолжительность: 01:37:03
Перевод(ы):
#1: Дублированный | Лицензия

#2: Авторский | Дохалов
#3: Авторский | Гаврилов

Качество: BDRemux 2160p
Видео: 3840x2160 at 23.976 fps, MPEG-H HEVC HDR Video, 43900 kbps avg
Звук:
Аудио #01: 48 kHz, AC3, 5.1, 640 Kbps | Лицензия | RUS |
Аудио #02: 48 kHz, DTS-HD MA, 7.1, 4582 Kbps | Дохалов | RUS |
Аудио #03: 48 kHz, DTS-HD MA, 7.1, 4856 Kbps | Гаврилов | RUS |
Аудио #04: 48 kHz, TrueHD, 7.1, 6046 Kbps | Оригинал | ENG |
Аудио #05: 48 kHz, AC3, 5.1, 640 Kbps | Оригинал | ENG |
Субтитры: Русские (Full), английские



MI
General
Unique ID : 288456520965567289774045956407755744121 (0xD902B483EECD38849DB47C3089672379)
Complete name : D:Video111Finding.Dory.2016.BDREMUX.2160p.HDR.seleZen.mkv
Format : Matroska
Format version : Version 4
File size : 41.2 GiB
Duration : 1 h 37 min
Overall bit rate mode : Variable
Overall bit rate : 60.7 Mb/s
Movie name : Finding Dory 2016 4K from селезень
Encoded date : UTC 2019-09-07 21:06:20
Writing application : mkvmerge v22.0.0 ('At The End Of The World') 64-bit
Writing library : libebml v1.3.5 + libmatroska v1.4.8

Video
ID : 1
Format : HEVC
Format/Info : High Efficiency Video Coding
Format profile : Main 10@L5.1@High
HDR format : SMPTE ST 2086, HDR10 compatible
Codec ID : V_MPEGH/ISO/HEVC
Duration : 1 h 37 min
Bit rate : 43.9 Mb/s
Width : 3 840 pixels
Height : 2 160 pixels
Display aspect ratio : 16:9
Frame rate mode : Constant
Frame rate : 23.976 (24000/1001) FPS
Color space : YUV
Chroma subsampling : 4:2:0 (Type 2)
Bit depth : 10 bits
Bits/(Pixel*Frame) : 0.221
Stream size : 29.8 GiB (72%)
Writing library : ATEME Titan File 3.9.0 (4.9.0.0)
Language : English
Default : Yes
Forced : No
Color range : Limited
Color primaries : BT.2020
Transfer characteristics : PQ
Matrix coefficients : BT.2020 non-constant
Mastering display color pri : Display P3
Mastering display luminance : min: 0.0000 cd/m2, max: 1000 cd/m2

Audio #1
ID : 2
Format : AC-3
Format/Info : Audio Coding 3
Commercial name : Dolby Digital
Codec ID : A_AC3
Duration : 1 h 37 min
Bit rate mode : Constant
Bit rate : 640 kb/s
Channel(s) : 6 channels
Channel layout : L R C LFE Ls Rs
Sampling rate : 48.0 kHz
Frame rate : 31.250 FPS (1536 SPF)
Bit depth : 16 bits
Compression mode : Lossy
Stream size : 444 MiB (1%)
Title : Dub [License]
Language : Russian
Service kind : Complete Main
Default : Yes
Forced : Yes

Audio #2
ID : 3
Format : DTS XLL
Format/Info : Digital Theater Systems
Commercial name : DTS-HD Master Audio
Codec ID : A_DTS
Duration : 1 h 37 min
Bit rate mode : Variable
Bit rate : 4 582 kb/s
Channel(s) : 8 channels
Channel layout : C L R LFE Lb Rb Lss Rss
Sampling rate : 48.0 kHz
Frame rate : 93.750 FPS (512 SPF)
Bit depth : 24 bits
Compression mode : Lossless
Stream size : 3.11 GiB (8%)
Title : AVO [Dohalov]
Language : Russian
Default : No
Forced : No

Audio #3
ID : 4
Format : DTS XLL
Format/Info : Digital Theater Systems
Commercial name : DTS-HD Master Audio
Codec ID : A_DTS
Duration : 1 h 37 min
Bit rate mode : Variable
Bit rate : 4 856 kb/s
Channel(s) : 8 channels
Channel layout : C L R LFE Lb Rb Lss Rss
Sampling rate : 48.0 kHz
Frame rate : 93.750 FPS (512 SPF)
Bit depth : 24 bits
Compression mode : Lossless
Stream size : 3.29 GiB (8%)
Title : AVO [Gavrilov]
Language : Russian
Default : No
Forced : No

Audio #4
ID : 5
Format : MLP FBA 16-ch
Format/Info : Meridian Lossless Packing FBA with 16-channel presentation
Commercial name : Dolby TrueHD with Dolby Atmos
Codec ID : A_TRUEHD
Duration : 1 h 37 min
Bit rate mode : Variable
Bit rate : 6 046 kb/s
Maximum bit rate : 7 845 kb/s
Channel(s) : 8 channels
Channel layout : L R C LFE Ls Rs Lb Rb
Sampling rate : 48.0 kHz
Frame rate : 1 200.000 FPS (40 SPF)
Compression mode : Lossless
Stream size : 4.10 GiB (10%)
Title : Original
Language : English
Default : No
Forced : No
Number of dynamic objects : 13
Bed channel count : 1 channel
Bed channel configuration : LFE

Audio #5
ID : 6
Format : AC-3
Format/Info : Audio Coding 3
Commercial name : Dolby Digital
Codec ID : A_AC3
Duration : 1 h 37 min
Bit rate mode : Constant
Bit rate : 640 kb/s
Channel(s) : 6 channels
Channel layout : L R C LFE Ls Rs
Sampling rate : 48.0 kHz
Frame rate : 31.250 FPS (1536 SPF)
Bit depth : 16 bits
Compression mode : Lossy
Stream size : 444 MiB (1%)
Language : English
Service kind : Complete Main
Default : No
Forced : No

Text #1
ID : 7
Format : UTF-8
Codec ID : S_TEXT/UTF8
Codec ID/Info : UTF-8 Plain Text
Duration : 1 h 35 min
Bit rate : 126 b/s
Count of elements : 1456
Stream size : 88.3 KiB (0%)
Title : Full
Language : Russian
Default : No
Forced : No

Text #2
ID : 8
Format : UTF-8
Codec ID : S_TEXT/UTF8
Codec ID/Info : UTF-8 Plain Text
Duration : 1 h 35 min
Bit rate : 85 b/s
Count of elements : 1578
Stream size : 59.4 KiB (0%)
Title : Full
Language : English
Default : No
Forced : No

Text #3
ID : 9
Format : UTF-8
Codec ID : S_TEXT/UTF8
Codec ID/Info : UTF-8 Plain Text
Duration : 1 h 35 min
Bit rate : 92 b/s
Count of elements : 1764
Stream size : 64.7 KiB (0%)
Title : SDH
Language : English
Default : No
Forced : No

Text #4
ID : 10
Format : UTF-8
Codec ID : S_TEXT/UTF8
Codec ID/Info : UTF-8 Plain Text
Duration : 1 h 35 min
Bit rate : 121 b/s
Count of elements : 1764
Stream size : 84.7 KiB (0%)
Title : SDH [Colored]
Language : English
Default : No
Forced : No

Menu
00:00:00.000 : en:Prologue
00:02:35.738 : en:Lost At Sea
00:06:50.159 : en:Life With Dory
00:10:53.152 : en:Losing Dory
00:13:32.937 : en:Dory Leads
00:15:25.007 : en:Totally Sick
00:17:03.022 : en:Shipping Lanes
00:19:35.465 : en:Marine Life Institute
00:21:35.294 : en:Under Quarantine
00:24:58.413 : en:Getting In
00:27:08.376 : en:No Pipes
00:30:33.206 : en:Manifest Destiny
00:35:00.056 : en:Operation Becky
00:37:52.019 : en:Stroller Crossing
00:40:17.998 : en:Stuck
00:41:06.297 : en:Argument
00:42:30.422 : en:Touch Pool
00:46:03.427 : en:Confession
00:48:41.585 : en:Tag
00:50:27.858 : en:Childhood Home
00:55:06.344 : en:Pipe Travel
00:57:05.839 : en:Meeting Marlin
01:00:41.346 : en:Off To Cleveland
01:04:32.910 : en:All Alone
01:10:36.732 : en:Game Plan
01:12:28.218 : en:Stop That Truck
01:14:09.862 : en:Time To Go
01:18:26.493 : en:Big Finish
01:26:49.329 : en:Epilogue


Релиз от:

ОценкаНикто ещё не поставил оценку
КатегорияМультипликация
Раздают1
Качают3
Сидер замечен08-09-2019 2:19:12 (27 минут назад)
Добавлен08-09-2019 0:14:12 (3 часа назад)
Размер41.17 GB (44200957568 Bytes)
Файлы (1)

up
На сервере не хранятся никакие нелегальные файлы и нет торрент файлов. Здесь невозможно что-либо скачать. Имеются только копии страниц с текстом для ознакомления. Администрация не несёт ответственности за их содержание. Информация правообладателям